Wholesale PriceList for SDV071B Sports Camera to Islamabad Manufacturer

Short Description:


Product Detail

Product Tags

Related Video

Feedback (2)

"Based on domestic market and expand abroad business" is our improvement strategy for 1.5 Screen Panoramic Camera , 2K Plastic Car DVR , 1080P Action Cam , Our aim would be to build Win-win scenario with our consumers. We feel we are going to be your greatest choice. "Reputation Initially, Customers Foremost. "Waiting for your inquiry.
Wholesale PriceList for SDV071B Sports Camera to Islamabad Manufacturer Detail:

SDV-071B

2.0″TFT

Without WIFI    

Video format:  1080P/30FPS(1920*1080)

                     720P/60FPS/30fps. VGA 60fps. MOV H.264

Sensor               

H42  Senser

Angle of view

140° full glass

Photo resolution

12M  8M  5M   3M 2M JPEG

Video format  

H.264MOV

Language 

English/French/German/Spanish/Italian/Portuguese/Simplied Chinese/Japanese/Traditional Chinese/ Russian/Korean/Polish/Swedish

Battery life

60 minutes(1080P)

Video output               

50Hz/60Hz

Audio                    

Built in microphone&speaker

Storage                  

TF 4GB-32G B

Battery capacity

900mAh

USB

USB2.0 Mini

Waterproof grade

30 meters underwater for 1 hours

The operating system

Windows XP/VistaorAbove/Win7/Mac os

Size and shape

29.8×59.2x41MM

Colour (7)

Black/White/Silver/Yellow/Blue/Pink/Gold

Weight

58g with batteries

Applications

 Extreme Sports, Outdoor Sport Activities,Bicycle,Car DVR, Diving,Home security etc

 


Product detail pictures:

Wholesale PriceList for
 SDV071B Sports Camera to Islamabad Manufacturer detail pictures

Wholesale PriceList for
 SDV071B Sports Camera to Islamabad Manufacturer detail pictures

Wholesale PriceList for
 SDV071B Sports Camera to Islamabad Manufacturer detail pictures

Wholesale PriceList for
 SDV071B Sports Camera to Islamabad Manufacturer detail pictures

Wholesale PriceList for
 SDV071B Sports Camera to Islamabad Manufacturer detail pictures

Wholesale PriceList for
 SDV071B Sports Camera to Islamabad Manufacturer detail pictures

Wholesale PriceList for
 SDV071B Sports Camera to Islamabad Manufacturer detail pictures

Wholesale PriceList for
 SDV071B Sports Camera to Islamabad Manufacturer detail pictures


Related Product Guide:

Our mission should be to turn out to be an innovative supplier of high-tech digital and communication devices by furnishing price added structure, world-class producing, and service capabilities for Wholesale PriceList for SDV071B Sports Camera to Islamabad Manufacturer, The product will supply to all over the world, such as: Detroit , Mumbai , Thailand , Our solutions have been obtained more and more recognition from foreign clients, and established long term and cooperative relationship with them. We`ll deliver the best service for every customer and sincerely welcome friends to work with us and establish the mutual benefit together.


  • http://alipromo.com/redirect/product/30e12e5c9935a27494e5ccc04ad4240c/32804083861/en – 360 Degree Panoramic Ip Camera Fisheye Wifi Cctv Cam Ptz 3d Vr Video P2p 960p Audio Home Ofiice Security Remotely Monitori

    Brand Name: IDV
    Lens Amount: Multiple Lens
    NightShot Function: Yes
    WIFI Support: Yes
    Package: Yes
    Model Number: ZB-IP23601-1.3MP
    Remote Control Support: No
    Image Stabilization: Optical Image Stabilizer
    Weight: 0.2kg
    VR Support: Yes
    AV Output: No
    Waterproof: No
    HDMI Output: No
    Display Screen: No
    Memory Card Type: MicroSD
    TF
    Memory Card Support: 64G
    Live Broadcast: Yes
    Pixels: 960p
    Image Resolution: 960P
    Bluetooth Support: No
    Sensor Type: CMOS
    The Surround Sound Support: Yes
    3D support: Yes
    Wideangle: 360: 180
    NFC Support: No
    Touch Screen: No
    Screen Size: none
    Built-in Memory Size: max to 64G
    High Definition Support: 960P
    Battery Capacity: for power adaptor
    Volume: 15.2x14x4CM



    Its a original raw file, havent change here anything.
    Mediainfo:
    Format : AVI
    Format/Info : Audio Video Interleave
    File size : 121 MiB
    Duration : 40s 0ms
    Overall bit rate : 25.4 Mbps
    Video
    ID : 0
    Format : JPEG
    Codec ID : MJPG
    Duration : 40s 0ms
    Bit rate : 24.0 Mbps
    Width : 1 920 pixels
    Height : 1 080 pixels
    Display aspect ratio : 16:9
    Frame rate : 30.000 fps
    Color space : YUV
    Chroma subsampling : 4:2:0
    Bit depth : 8 bits
    Compression mode : Lossy
    Bits/(Pixel*Frame) : 0.386
    Stream size : 115 MiB (95%)

    Audio
    ID : 1
    Format : PCM
    Format settings, Endianness : Little
    Format settings, Sign : Signed
    Codec ID : 1
    Duration : 40s 0ms
    Bit rate mode : Constant
    Bit rate : 512 Kbps
    Channel(s) : 1 channel
    Sampling rate : 32.0 KHz
    Bit depth : 16 bits
    Stream size : 2.44 MiB (2%)
    Alignment : Aligned on interleaves
    Interleave, duration : 1000 ms (30.00 video frames)

    This company conforms to the market requirement and joins in the market competition by its high quality product, this is an enterprise that have Chinese spirit.
    5 Stars By Alma from Ghana - 2016.10.13 10:47
    The company's products can meet our diverse needs, and the price is cheap, the most important is that the quality is also very nice.
    5 Stars By Maud from Uruguay - 2016.08.28 16:02

    Send your message to us:

    INQUIRY NOW
    • * CAPTCHA: Please select the House

    Related Products

    INQUIRY NOW
    • * CAPTCHA: Please select the Flag

    WhatsApp Online Chat !